Windows 7 Forums
Welcome to Windows 7 Forums. Our forum is dedicated to helping you find support and solutions for any problems regarding your Windows 7 PC be it Dell, HP, Acer, Asus or a custom build. We also provide an extensive Windows 7 tutorial section that covers a wide range of tips and tricks.


Windows 7: Smartphone video no audio with shark codec


25 Aug 2011   #1

Windows 7 Home Premium x64 OEM --> RTM clean install
 
 
Smartphone video no audio with shark codec

Just upgraded my brick to an LG Optimus ME smartphone, and the video it records is soundless on my x64 Home Premium box with shark007 codec pack (3.0.3).

I've tried "reset all" then "Shark007 suggested settings". I've also tried messing with various things in the audio tab, but still the .3gp video files playback soundless. Below is the result of the "analyse file" button:

General
Complete name : B:\MOV002.3gp
Format : MPEG-4
Format profile : 3GPP Media Release 4
Codec ID : 3gp4
File size : 2.07 MiB
Duration : 12s 277ms
Overall bit rate : 1 414 Kbps
Law rating : (empty)
Released date : 0
Encoded date : UTC 2011-08-22 20:31:13
Tagged date : UTC 2011-08-22 20:31:13
Classification : (empty)
Video
ID : 2
Format : MPEG-4 Visual
Format profile : Simple@L0
Format settings, BVOP : Yes
Format settings, QPel : No
Format settings, GMC : No warppoints
Format settings, Matrix : Default (H.263)
Codec ID : 20
Duration : 12s 277ms
Bit rate mode : Constant
Bit rate : 1 398 Kbps
Nominal bit rate : 1 500 Kbps
Width : 640 pixels
Height : 480 pixels
Display aspect ratio : 4:3
Frame rate mode : Variable
Frame rate : 24.110 fps
Minimum frame rate : 10.417 fps
Maximum frame rate : 34.483 fps
Color space : YUV
Bit depth : 8 bits
Scan type : Progressive
Compression mode : Lossy
Bits/(Pixel*Frame) : 0.189
Stream size : 2.05 MiB (99%)
Language : English
Encoded date : UTC 2011-08-22 20:31:13
Tagged date : UTC 2011-08-22 20:31:13
Audio
ID : 1
Format : AMR
Format/Info : Adaptive Multi-Rate
Format profile : Narrow band
Codec ID : samr
Duration : 12s 220ms
Bit rate mode : Variable
Bit rate : 12.3 Kbps
Channel(s) : 1 channel
Sampling rate : 8 000 Hz
Bit depth : 13 bits
Stream size : 18.3 KiB (1%)
Writing library : pvmm
Language : English
Encoded date : UTC 2011-08-22 20:31:13
Tagged date : UTC 2011-08-22 20:31:13

---------

If anyone could assist, I'd be grateful. My prefered media player is WMP12. (Media Centre doesn't even open the file)
Regards
D

My System SpecsSystem Spec
.

26 Aug 2011   #2

Windows 7 Ultimate 64bit
 
 

Install QT Lite
My System SpecsSystem Spec
26 Aug 2011   #3

Windows 7 Home Premium x64 OEM --> RTM clean install
 
 

Thanks for that Shark, nearly there!
I installed from your link, then tried to play my video file. The same - video with no sound. I then ran as admin and reset all, giving me a video playback super slow (of approx 5 frames a second) but with sound.
Run as admin --> use shark recommended settings gives the original result of video playing at correct speed, without sound.

What am I doing wrong?
Thanks
D
My System SpecsSystem Spec
.


26 Aug 2011   #4

Windows 7 Ultimate 64bit
 
 

On the Config TAB, open FFDshow audio config
with 'codecs' selected on the leftside, change 'Uncompressed', from 'disabled' to 'all supported'.
My System SpecsSystem Spec
26 Aug 2011   #5

Windows 7 Home Premium x64 OEM --> RTM clean install
 
 

Tried that, same thing = normal speed video without any audio. (as admin)

Do you have another suggestion, please?!
My System SpecsSystem Spec
27 Aug 2011   #6

Windows 7 Ultimate 64bit
 
 

Quote   Quote: Originally Posted by allend66 View Post
Do you have another suggestion, please?!
uhhuh.
On the Audio TAB, click the button, setup LAV audio, close the popup window
test
My System SpecsSystem Spec
27 Aug 2011   #7

Windows 7 Home Premium x64 OEM --> RTM clean install
 
 

Quote   Quote: Originally Posted by Shark007 View Post
On the Audio TAB, click the button, setup LAV audio, close the popup window
test
Sorry if I seem to be thick but I'm a bit lost: You say on the audio tab click the button - there aren't any buttons, only radio buttons - which I'll assume you mean. Then setup LAV audio, but clicking on any and all of the radio buttons doesn't bring forth anything about LAV audio.

If however you mean on the Config tab and audio button (I suspect not but gotta try posibilities) again there is no button to setup LAV audio, and as a check I've searched all the program for LAV audio - can't find it anywhere.

Are we on the same page - I upgraded to version 3.0.3?
Thanks for your patience.


Attached Images
  
My System SpecsSystem Spec
28 Aug 2011   #8

Windows 7 Ultimate 64bit
 
 

UNINSTALL and re-install version 303.

you need to do a clean install of the software, not an upgrade
My System SpecsSystem Spec
02 Sep 2011   #9

Windows 7 Home Premium x64 OEM --> RTM clean install
 
 

Thanks Shark, I`ll try it when I`m back from holidays.
As a workaround I`d installed MPCStar media player, but later found on my mobile`s sd card a pc suite app that converts video from 3gpp to mp4.

Either way I`ll fresh instal your codec pack , thanks for the replies
regards
D
My System SpecsSystem Spec
Reply

 Smartphone video no audio with shark codec




Thread Tools



Similar help and support threads for2: Smartphone video no audio with shark codec
Thread Forum
Distorted audio with IDT High Definition audio codec Sound & Audio
MKV not using .sub file, Shark codec WMC Media Center
Alternative to Shark's Codec Pack? Software
Video Codec Music, Pictures & Video
IDT Audio HD Codec Sound & Audio
Realtek HD Audio - wrong codec? Sound & Audio

Our Sites

Site Links

About Us

Find Us

Windows 7 Forums is an independent web site and has not been authorized, sponsored, or otherwise approved by Microsoft Corporation. "Windows 7" and related materials are trademarks of Microsoft Corp.

Designer Media Ltd

All times are GMT -5. The time now is 06:03 PM.
Twitter Facebook Google+



Windows 7 Forums

Seven Forums Android App Seven Forums IOS App
  

1 2 3 4 5 6 7 8 9 10 11 12 13 14 15 16 17 18 19 20 21 22 23 24 25 26 27 28 29 30 31 32 33