Windows 7 Forums
Welcome to Windows 7 Forums. Our forum is dedicated to helping you find support and solutions for any problems regarding your Windows 7 PC be it Dell, HP, Acer, Asus or a custom build. We also provide an extensive Windows 7 tutorial section that covers a wide range of tips and tricks.


Windows 7: Windows DVD maker problem :-(


13 May 2012   #1

Windows 7 Professional x64 Edition w/ Service Pack 1
 
 
Windows DVD maker problem :-(

After a clean install of Windows, i am now getting an error in windows dvd maker when trying to burn a dvd using an AVI file.


It gets to 0.7% encoding and then says finalizing disc and ejects it.
An error is displayed. "Unable to create DVD" "Invalid Class String"

I have the Shark007's Codec pack x86 and x64 installed.
I've tried deleting the 2 registry keys listed in Microsoft answers.
I've also tried the Codec Tweak Tool.

I've unchecked all the codecs under options compatibility in windows dvd maker still did not work.
So far I've wasted 4 dvds trying to get it to work.
It destroys the disc apparently also! because when i put the dvds back in It says there is no disc in Drive D.

I have Windows 7 professional x64 edition untouched.
It's a clean install of windows with only essential programs installed.

Please i need help quick, I promised someone these dvds. :-)


My System SpecsSystem Spec
.

13 May 2012   #2

Windows 7 Professional x64 Edition w/ Service Pack 1
 
 

here are the windows logs of dvd maker errors


Attached Files
File Type: zip Desktop.zip (6.9 KB, 153 views)
My System SpecsSystem Spec
13 May 2012   #3

Windows 7 Ultimate 64bit
 
 

Quote   Quote: Originally Posted by jwthe3 View Post
I have the Shark007's Codec pack x86 and x64 installed.
most likely the problem is the video codec used within the AVI.
My software is a playback solution - the file probably plays just fine.

If you go to the Misc TAB of either Settings Application and use the button to [Analyze a media file], I would venture to guess that the avi contains avc video which the dvdmaker software is unable to handle. AVI video files should never contain avc video although several release groups do it anyway simply because they lack the knowledge of how to properly create a video file.
My System SpecsSystem Spec
.


13 May 2012   #4

Windows 7 Professional x64 Edition w/ Service Pack 1
 
 

Format : AVI
Format/Info : Audio Video Interleave
File size : 1.44 GiB
Duration : 1h 44mn
Overall bit rate : 1 979 Kbps
Writing library : Boilsoft AVI tool build 1/release

Video
ID : 0
Format : MPEG-4 Visual
Format profile : Advanced Simple@L5
Format settings, BVOP : 2
Format settings, QPel : No
Format settings, GMC : No warppoints
Format settings, Matrix : Default (H.263)
Codec ID : XVID
Codec ID/Hint : XviD
Duration : 1h 44mn
Bit rate : 1 776 Kbps
Width : 720 pixels
Height : 400 pixels
Display aspect ratio : 16:9
Frame rate : 29.970 fps
Color space : YUV
Chroma subsampling : 4:2:0
Bit depth : 8 bits
Scan type : Progressive
Compression mode : Lossy
Bits/(Pixel*Frame) : 0.206
Stream size : 1.30 GiB (90%)
Writing library : XviD 1.2.1 (UTC 2008-12-04)

Audio
ID : 1
Format : AC-3
Format/Info : Audio Coding 3
Codec ID : 2000
Duration : 1h 44mn
Bit rate mode : Constant
Bit rate : 192 Kbps
Channel(s) : 2 channels
Sampling rate : 48.0 KHz
Bit depth : 16 bits
Compression mode : Lossy
Stream size : 143 MiB (10%)
Alignment : Split accross interleaves
Interleave, duration : 33 ms (1.00 video frame)
Interleave, preload duration : 500 ms
My System SpecsSystem Spec
13 May 2012   #5

Windows 7 Ultimate 64bit
 
 

The posted information looks OK for an AVI file.
I have no other suggestions as to why DVDmaker is failing.

Maybe pressing [Reset All] in both of the Settings Application will correct any issue present.
My System SpecsSystem Spec
13 May 2012   #6

Windows 7 Professional x64 Edition w/ Service Pack 1
 
 

Well i tried something because i was curious.

I uninstalled Shark007 codec pack temporarily.

It's now encoding and burning correctly.

If anyone is having this problem i suggest you uninstall any codec packs you have because they could cause conflict with your windows dvd maker.

I don't burn dvds that often but when i do i guess i will just have to uninstall codec packs.

Shark007 please look into this problem and try to fix for future releases. That would be incredible. I love your codec pack and would highly recommend it to anyone.
My System SpecsSystem Spec
Reply

 Windows DVD maker problem :-(




Thread Tools



Similar help and support threads for2: Windows DVD maker problem :-(
Thread Forum
TOTALLY FREE video maker for Windows 7 (apart from Movie Maker) Music, Pictures & Video
Windows DVD Maker problem Media Center
High Definition Problem From Windows DVD Maker... Music, Pictures & Video
windows dvd maker problem Music, Pictures & Video
Problem burning dvd in Windows Dvd maker Media Center
Windows DVD Maker problem with USB dongle Music, Pictures & Video
Windows dvd maker problem Software

Our Sites

Site Links

About Us

Find Us

Windows 7 Forums is an independent web site and has not been authorized, sponsored, or otherwise approved by Microsoft Corporation. "Windows 7" and related materials are trademarks of Microsoft Corp.

Designer Media Ltd

All times are GMT -5. The time now is 10:56 AM.
Twitter Facebook Google+



Windows 7 Forums

Seven Forums Android App Seven Forums IOS App
  

1 2 3 4 5 6 7 8 9 10 11 12 13 14 15 16 17 18 19 20 21 22 23 24 25 26 27 28 29 30 31 32 33