Windows 7 Forums
Welcome to Windows 7 Forums. Our forum is dedicated to helping you find support and solutions for any problems regarding your Windows 7 PC be it Dell, HP, Acer, Asus or a custom build. We also provide an extensive Windows 7 tutorial section that covers a wide range of tips and tricks.



Windows 7: Help For Fix In K-lite Play Avi

21 Jun 2010   #1

Win 7
 
 
Help For Fix In K-lite Play Avi

Hi.
Me Install New K-lite 6.4 Mega But Not play sound.
Plz Help For Fix.

Sys info :

Win 7 SP1 x86.

Media Info :

Code:
 
General
Complete name                    : C:\Users\AhrimanSefid\Documents\Downloads\Compressed\The_Nightmare_Before_Christmas.avi
Format                           : AVI
Format/Info                      : Audio Video Interleave
File size                        : 704 MiB
Duration                         : 1h 16mn
Overall bit rate                 : 1 295 Kbps
Video
ID                               : 0
Format                           : MPEG-4 Visual
Format profile                   : Advanced Simple@L5
Format settings, BVOP            : Yes
Format settings, QPel            : No
Format settings, GMC             : No warppoints
Format settings, Matrix          : Default (H.263)
Muxing mode                      : Packed bitstream
Codec ID                         : XVID
Codec ID/Hint                    : XviD
Duration                         : 1h 16mn
Bit rate                         : 1 157 Kbps
Width                            : 592 pixels
Height                           : 352 pixels
Display aspect ratio             : 1.682
Frame rate                       : 23.976 fps
Color space                      : YUV
Chroma subsampling               : 4:2:0
Bit depth                        : 8 bits
Scan type                        : Progressive
Bits/(Pixel*Frame)               : 0.232
Stream size                      : 630 MiB (89%)
Writing library                  : XviD 1.2.1 (UTC 2008-12-04)
Audio
ID                               : 1
Format                           : MPEG Audio
Format version                   : Version 1
Format profile                   : Layer 3
Codec ID                         : 55
Codec ID/Hint                    : MP3
Duration                         : 1h 16mn
Bit rate mode                    : Constant
Bit rate                         : 128 Kbps
Channel(s)                       : 2 channels
Sampling rate                    : 48.0 KHz
Video delay                      : 24ms
Stream size                      : 69.6 MiB (10%)
Alignment                        : Split accross interleaves
Interleave, duration             : 42 ms (1.00 video frame)
Title                            : Audio Stream


My System SpecsSystem Spec
Reply

 Help For Fix In K-lite Play Avi





Thread Tools



Similar help and support threads for2: Help For Fix In K-lite Play Avi
Thread Forum
Solved Using RT 7 Lite Installation & Setup
V-Lite for Windows 7? Software
K-Lite Codec + SRT Software
WMP wont play MP4 after K-Lite installation Software
hang when play movie with k.lite mega codec 5.83? BSOD Help and Support
V-Lite Help! Software
K-Lite Codec Software

Our Sites

Site Links

About Us

Find Us

Windows 7 Forums is an independent web site and has not been authorized, sponsored, or otherwise approved by Microsoft Corporation. "Windows 7" and related materials are trademarks of Microsoft Corp.

Designer Media Ltd

All times are GMT -5. The time now is 01:56 AM.
Twitter Facebook Google+



Windows 7 Forums

Seven Forums Android App Seven Forums IOS App
  

1 2 3 4 5 6 7 8 9 10 11 12 13 14 15 16 17 18 19 20 21 22 23 24 25 26 27 28 29 30 31 32 33